2 talking about this. FILE "Hanne Haller - Wir sind nur Gast auf dieser Welt.flac" FLAC TRACK 01 AUDIO TITLE "Denn Er hat seinen Engeln..." PERFORMER "Hanne Haller" INDEX 01 00:00:00 TRACK 02 AUDIO TITLE "Denn Sie Wissen Nicht, Was Sie Tun" PERFORMER "Hanne Haller" INDEX 00 03:49:14 INDEX 01 03:51:13 TRACK 03 AUDIO TITLE "Dominus Wobiscum" PERFORMER "Hanne Haller" INDEX 00 07:16:00 INDEX 01 07:18:20 … Gestorben am 15.11.2005. Diese Seite ist der Sängerin, Komponisten, Texterin und Tonmeisterin, Hanne Haller, gewidmet. Note: this entry is based on a translation of the entry in the German version of Wikipedia. пользователями каталогу ссылок на, (8 лет 10 месяцев назад, ред. Nov 4, 2016 - 1996 - Michael performs HIStory tour at Amsterdam Arena in Amsterdam [The Netherlands] attending 50,000 fans. Nacht - Das große Dubai-Special [2007], FLAC (image+.cue), lossless - 7 Albums - 1992-2010, MP3, 128-320 kbps - Полная дискография (25 альбомов) - 1993-2011, MP3, 192 kbps - Tagebuch einer Chaos-Queen - 2009, DVD9 - 30 Jahre mit Leib und Seele [2010], FLAC (image+.cue), lossless - 13 Albums - 1990-2010, DVD5 - Goodbye Michelle (Deluxe Edition) [2009], FLAC (image+.cue), lossless - 10 Albums - 1995-2010, MP3, 320 kbps - Goodbye Michelle (Deluxe Edition) [2009], DVD9 - LIVE: Das Große Konzert in Oberhausen (Eine Reise durch die Seele) [2006], DVDRip (avi) - Zwischen Himmel Und Erde (Live) / Das Konzert - mit Band und Streichquartett [2009], FLAC (image+.cue), lossless - 13 Albums 1992-2011, FLAC (tracks+.cue), lossless - Коллекция/Collection - 4 Albums 2010-2011, MP3, CBR 192-320 kbps - 13 альбомов - 1992-2009, MP3, 320 kbps - Abenteuer (Premium Edition) - 2011, MP3, 320 kbps - Abenteuer (Exklusive Version) - 2011. MP3, V0 - Abenteuer (Swiss Edition) - 2011, MP3, VBR V2 kbps - Schwerelos: Tour Editon - 2011, DVD5 - Komm, wir fahren nach Amsterdam - 2007, FLAC (image+.cue), lossless - 4 Albums 2003-2011, FLAC (image+.cue), lossless – 9 Albums 1996-2010, FLAC (image+.cue), lossless - Hautnah (Sonder-Edition) 2007, DVD9 - Vicky Leandros singt Mikis Theodorakis - 2003, TVRip (DVD) - Ich bin - поп-эксперимент с участием Julien Clerc и Deep Purple - 1970, FLAC (image+.cue), lossless - 6 Albums 1983-2009. (спустя 1 месяц 10 дней), Rutracker.org не распространяет и не хранит электронные версии произведений, а лишь предоставляет доступ к создаваемому Geboren als Hannelore Haller am 14.01.1950 in Rendsburg. 27-Фев-12 22:18), 1999 Ihre grossen Erfolge - Mein lieber Mann, 1990 Weil Du ein zaertlicher Mann bist - 16 romantische Love-Songs, (Pop) Hanne Haller - 7 Albums - 1990-2008, FLAC (image+.cue), lossless, DVD5 - Mein München: Auch wenn es nicht vernünftig ist [2001], FLAC (image+.cue), lossless - 12 Albums - 1992 - 2009, FLAC (tracks), lossless - Дискография, 3 альбома (1992-1998), MP3, VBR, ~192 kbps - All The Best (2CD), 2011, Blu-ray - Live: Zum ersten Mal mit Band und Orchester [2011], DVDRip (avi) - Mut zum Gefühl - Live [2008, TVRip (DVD) - видео-коллекция 2006-2011 - Vol. Hanne Haller (January 14, 1950 in Rendsburg, Germany - November 15, 2005 in Tegernsee, Germany; full name Hannelore Haller) was a German pop singer (genre known as "schlager" in German), composer, writer, producer, and sound engineer. Enjoy the videos and music you love, upload original content, and share it all with friends, family, and the world on YouTube. Life. 02-Мар-12 21:16 Hanne Haller war eine deutsche Schlagersängerin, Komponistin, Texterin, Musikproduzentin und Tonmeisterin. 1, MP3, 320 kbps - Für einen Tag (Fan Edition) - 2011, MP3 (image+.cue), V2 - Der Ultimative Dance-Mix - 2011, MP3 (tracks), CBR 320 kbps - Best Of (Limitierte Fan - Edition) (3CD) - 2010, MP3, 192 kbps - Best Of Live - So wie ich bin (2CD) - 2010, MP3 (tracks), CBR 320 kbps - So wie ich bin - 2009, MP3 (tracks), 320 kbps - Ich will immer wieder...Dieses Fieber Spür'n (Сингл) - 2009, MP3 (tracks), VBR 128-230 kbps - Mut zum Gefühl (Live 2008), MP3 (tracks), 192-320 kbps - Дискография (3 альбома + 1 сингл) - 2006-2008, DVD5 - Die 1002. Find album reviews, stream songs, credits and award information for So Long und Goodbye - Hanne Haller on AllMusic - 2007 Wikipedia deutsch. Complete Chart-History (pdf) Wikipedia english. Hanne Haller grew up in the province of Schleswig-Holstein.